osu file format v14

[General]
AudioFilename: 13 Palette.mp3
AudioLeadIn: 1500
PreviewTime: 77978
Countdown: 0
SampleSet: Soft
StackLeniency: 0.7
Mode: 0
LetterboxInBreaks: 0
WidescreenStoryboard: 0

[Editor]
Bookmarks: 31644
DistanceSpacing: 0.8
BeatDivisor: 4
GridSize: 4
TimelineZoom: 1

[Metadata]
Title:Palette
TitleUnicode:Palette
Artist:nano
ArtistUnicode:ナノ
Creator:DingGGu
Version:Insane
Source:
Tags:yuyoyuppe vocaloid nicovideo megurine luka w_h_i_t_e
BeatmapID:229662
BeatmapSetID:83112

[Difficulty]
HPDrainRate:7
CircleSize:4
OverallDifficulty:8
ApproachRate:9
SliderMultiplier:1.72
SliderTickRate:1

[Events]
//Background and Video events
0,0,"palettebg.png",1,1
//Break Periods
2,113515,122715
2,126180,129381
2,132848,139050
2,172850,175049
//Storyboard Layer 0 (Background)
//Storyboard Layer 1 (Fail)
//Storyboard Layer 2 (Pass)
//Storyboard Layer 3 (Foreground)
//Storyboard Sound Samples
//Background Colour Transformations
3,100,163,162,255

[TimingPoints]
651,333.333333333333,3,2,1,40,1,0
32650,-100,3,1,1,40,0,0
48650,333.333333333333,5,2,1,40,1,0
48650,-133.333333333333,5,2,1,40,0,0
61983,333.333333333333,3,2,1,40,1,0
76982,-100,3,1,1,40,0,0
77982,-100,3,1,1,40,0,1
93649,-100,3,1,1,40,0,0
93982,-100,3,1,1,40,0,1
109982,333.333333333333,5,1,1,40,1,0
123315,-200,5,2,1,40,0,0
129981,-200,5,2,1,20,0,0
136650,333.333333333333,3,2,1,20,1,0
139650,-200,3,2,1,40,0,0
175649,-100,3,1,1,40,0,0
176649,-100,3,1,1,40,0,1
192316,-100,3,1,1,40,0,0
192649,-100,3,1,1,40,0,1
208649,-100,3,1,1,40,0,0
217983,-100,3,1,1,35,0,0
219316,-100,3,1,1,30,0,0
220649,-100,3,1,1,25,0,0
221983,-100,3,1,1,20,0,0
223316,-100,3,1,1,15,0,0
224649,-100,3,1,1,10,0,0
224983,-100,3,1,1,5,0,0

[Colours]
Combo1 : 192,192,192
Combo2 : 0,191,244
Combo3 : 240,229,0
Combo4 : 239,96,0
Combo5 : 123,205,0
Combo6 : 222,0,131
Combo7 : 128,128,128

[HitObjects]
84,84,31650,5,2,0:0:0:0:
88,88,31984,1,2,0:0:0:0:
92,92,32317,1,2,0:0:0:0:
96,96,32650,6,0,B|107:124|106:154|96:180,1,86,4|0,0:0|2:0,0:0:0:0:
48,352,32984,2,0,B|37:324|38:294|48:268,1,86,0|0,0:0|2:0,0:0:0:0:
180,220,33317,2,0,B|184:250|174:279|156:300,1,86,8|0,0:0|2:0,0:0:0:0:
200,104,33650,2,0,B|226:87|256:83|284:88,1,86,0|0,0:0|2:0,0:0:0:0:
340,228,33984,2,0,B|310:232|281:222|260:204,1,86,0|0,0:0|2:0,0:0:0:0:
384,304,34317,5,8,0:0:0:0:
408,280,34400,1,0,0:0:0:0:
420,248,34484,1,0,0:0:0:0:
420,212,34567,1,0,0:0:0:0:
412,180,34650,6,0,L|396:96,1,86,0|0,0:0|2:0,0:0:0:0:
512,184,34984,2,0,L|496:268,1,86,0|0,0:0|2:0,0:0:0:0:
428,24,35317,2,0,B|398:14|368:20|344:36,1,86,8|0,0:0|2:0,0:0:0:0:
232,160,35650,2,0,B|262:170|292:164|316:148,1,86,0|0,0:0|2:0,0:0:0:0:
260,44,35984,1,0,0:0:0:0:
260,44,36067,1,0,2:0:0:0:
260,44,36150,1,8,3:0:0:0:
152,72,36317,5,8,0:0:0:0:
116,188,36484,1,8,0:0:0:0:
152,72,36650,38,0,B|122:65|93:67|67:76,1,86,0|0,0:0|2:0,0:0:0:0:
196,284,36984,2,0,B|226:291|255:289|281:280,1,86,0|0,0:0|2:0,0:0:0:0:
72,304,37317,1,8,0:0:0:0:
72,304,37484,1,8,0:0:0:0:
236,204,37650,6,0,L|228:116,1,86,0|0,0:0|2:0,0:0:0:0:
280,280,37984,2,0,L|288:368,1,86,0|0,0:0|2:0,0:0:0:0:
324,200,38317,2,0,B|352:211|382:210|408:200,1,86,8|0,0:0|2:0,0:0:0:0:
276,56,38650,2,0,B|249:42|219:40|192:48,1,86,0|0,0:0|2:0,0:0:0:0:
72,148,38984,2,0,B|102:150|130:137|148:116,1,86,0|0,0:0|2:0,0:0:0:0:
172,292,39317,2,0,L|140:212,1,86,8|0,0:0|2:0,0:0:0:0:
148,68,39651,5,0,1:0:0:0:
148,68,39734,1,0,0:0:0:0:
148,68,39817,1,0,0:0:0:0:
272,136,39984,1,0,0:0:0:0:
296,132,40067,1,8,3:0:0:0:
320,120,40151,1,0,2:0:0:0:
340,100,40234,1,0,2:0:0:0:
348,76,40317,5,8,0:0:0:0:
380,64,40401,1,0,0:0:0:0:
416,64,40484,1,0,0:0:0:0:
448,72,40567,1,0,0:0:0:0:
476,92,40651,6,0,B|490:119|492:149|484:176,1,86,0|0,0:0|2:0,0:0:0:0:
336,232,40984,2,0,B|322:205|320:175|328:148,1,86,0|0,0:0|2:0,0:0:0:0:
484,176,41317,2,0,L|396:184,1,86,8|0,0:0|2:0,0:0:0:0:
192,292,41651,2,0,L|280:284,1,86,0|0,0:0|2:0,0:0:0:0:
156,224,41984,2,0,B|130:240|116:268|116:296,1,86,0|0,0:0|2:0,0:0:0:0:
248,172,42317,1,8,0:0:0:0:
236,140,42401,1,0,0:0:0:0:
224,108,42484,1,0,0:0:0:0:
212,76,42567,1,0,0:0:0:0:
200,44,42651,38,0,B|170:40|141:50|120:68,1,86,0|0,0:0|2:0,0:0:0:0:
76,248,42984,2,0,B|106:252|135:242|156:224,1,86,0|0,0:0|2:0,0:0:0:0:
120,68,43317,2,0,B|100:91|93:120|96:148,1,86,8|0,0:0|2:0,0:0:0:0:
304,236,43651,2,0,B|324:213|331:184|328:156,1,86,0|0,0:0|2:0,0:0:0:0:
296,72,43984,1,0,0:0:0:0:
296,72,44067,1,0,2:0:0:0:
296,72,44151,1,8,3:0:0:0:
384,84,44317,5,8,0:0:0:0:
176,128,44484,1,8,0:0:0:0:
384,84,44651,6,0,B|412:92|412:92|436:108|444:140,1,86,0|0,0:0|2:0,0:0:0:0:
468,288,44984,2,0,B|440:280|440:280|416:264|408:232,1,86,0|0,0:0|2:0,0:0:0:0:
248,172,45317,1,8,0:0:0:0:
248,172,45484,1,8,0:0:0:0:
308,256,45651,6,0,B|320:298|348:332,1,86,0|0,0:0|2:0,0:0:0:0:
204,268,45984,2,0,B|161:256|118:264,1,86,0|0,0:0|2:0,0:0:0:0:
248,172,46317,2,0,B|278:140|293:99,1,86,8|0,0:0|2:0,0:0:0:0:
124,180,46651,6,0,B|112:216|113:252|124:285,1,86,0|0,0:0|2:0,0:0:0:0:
184,112,46984,2,0,B|196:76|195:40|184:7,1,86,0|0,0:0|2:0,0:0:0:0:
52,136,47317,2,0,B|71:160|97:174|125:180,1,86,8|0,0:0|2:0,0:0:0:0:
248,172,47651,37,0,0:0:0:0:
248,172,47734,1,0,2:0:0:0:
248,172,47817,1,0,0:0:0:0:
320,336,47984,2,0,B|315:321|315:306|319:293,3,43,0|0|0|0,0:0|2:0|2:0|2:0,0:0:0:0:
380,248,48317,2,0,B|386:233|385:217|380:204,3,43,8|0|0|0,0:0|0:0|1:0|1:0,0:0:0:0:
444,152,48650,6,0,B|409:122|361:121|325:143,1,129.00000492096,4|0,0:0|2:0,0:0:0:0:
248,172,49150,2,0,B|209:197|161:192|129:165,1,129.00000492096,8|4,0:0|3:0,0:0:0:0:
192,108,49650,2,0,L|196:44,1,64.5000024604798,4|0,3:0|0:0,0:0:0:0:
128,164,49983,2,0,L|124:228,1,64.5000024604798,4|0,3:0|0:0,0:0:0:0:
92,344,50316,6,0,B|74:301|89:254|123:229,1,129.00000492096,4|0,3:0|0:0,0:0:0:0:
168,304,50816,2,0,B|211:322|258:307|283:273,1,129.00000492096,8|4,0:0|3:0,0:0:0:0:
308,188,51316,1,4,3:0:0:0:
308,188,51650,5,8,0:0:0:0:
292,168,51733,1,8,0:0:0:0:
276,148,51816,1,8,0:0:0:0:
260,128,51900,1,8,0:0:0:0:
244,108,51983,6,0,B|207:80|159:82|125:107,1,129.00000492096,4|0,3:0|0:0,0:0:0:0:
64,168,52483,2,0,B|101:196|149:194|183:169,1,129.00000492096,8|4,0:0|3:0,0:0:0:0:
124,108,52983,2,0,L|124:44,1,64.5000024604798,4|0,3:0|0:0,0:0:0:0:
184,168,53316,2,0,L|184:232,1,64.5000024604798,4|0,3:0|0:0,0:0:0:0:
184,308,53650,38,0,B|231:306|265:262|256:216,1,129.00000492096,4|0,3:0|0:0,0:0:0:0:
184,232,54150,2,0,B|137:234|103:278|112:324,1,129.00000492096,8|0,0:0|0:0,0:0:0:0:
160,376,54650,1,4,3:0:0:0:
328,248,54983,1,8,0:0:0:0:
244,56,55316,6,0,B|286:38|334:61|348:104,1,129.00000492096,4|0,0:0|0:0,0:0:0:0:
380,172,55816,2,0,B|338:190|290:167|276:124,1,129.00000492096,8|4,0:0|3:0,0:0:0:0:
200,116,56316,2,0,B|168:108|136:116,1,64.5000024604798,4|0,3:0|0:0,0:0:0:0:
120,232,56650,2,0,B|152:240|184:232,1,64.5000024604798,4|0,3:0|0:0,0:0:0:0:
88,168,56983,6,0,B|56:186|41:221|47:256|68:279,1,129.00000492096,4|0,3:0|0:0,0:0:0:0:
132,308,57483,2,0,B|176:312|212:300|212:300|236:304|256:320,1,129.00000492096,8|0,0:0|0:0,0:0:0:0:
308,368,57983,1,0,0:0:0:0:
308,368,58316,5,8,0:0:0:0:
316,344,58400,1,8,0:0:0:0:
332,324,58483,1,8,0:0:0:0:
352,312,58566,1,8,0:0:0:0:
376,304,58650,6,0,B|421:296|449:252|440:209,1,129.00000492096,4|0,3:0|0:0,0:0:0:0:
436,136,59150,2,0,B|426:91|456:48|499:40,1,129.00000492096,8|0,0:0|0:0,0:0:0:0:
380,52,59650,2,0,B|368:72|363:95|364:117,1,64.5000024604798,4|0,3:0|0:0,0:0:0:0:
360,224,59983,2,0,B|340:236|318:241|297:240,1,64.5000024604798,4|0,3:0|0:0,0:0:0:0:
280,120,60316,38,0,B|317:162|317:222|285:263,1,129.00000492096,4|0,3:0|0:0,0:0:0:0:
232,312,60816,2,0,B|195:270|195:210|227:169,1,129.00000492096,8|0,0:0|0:0,0:0:0:0:
188,96,61316,2,0,B|167:105|152:121|144:140,1,64.5000024604798,,,0:0:0:0:
140,292,61650,2,0,B|128:261|132:228,1,64.5000024604798,8|0,0:0|0:0,0:0:0:0:
68,176,61983,6,0,B|58:145|64:113|80:88,1,86,4|0,2:0|0:0,0:0:0:0:
220,168,62316,1,4,3:0:0:0:
144,140,62483,1,0,0:0:0:0:
300,176,62649,2,0,B|302:146|289:118|268:100,1,86,8|0,0:0|0:0,0:0:0:0:
380,180,62983,6,0,B|408:191|438:190|464:180,1,86,4|0,3:0|0:0,0:0:0:0:
308,32,63316,2,0,B|280:21|250:22|224:32,1,86,4|0,3:0|0:0,0:0:0:0:
420,108,63649,1,8,0:0:0:0:
268,100,63816,1,8,3:0:0:0:
380,180,63983,6,0,B|412:232|399:297|357:335,1,172,4|4,3:0|3:0,0:0:0:0:
296,244,64483,1,0,0:0:0:0:
160,340,64649,2,0,B|188:351|218:350|244:340,1,86,8|0,0:0|0:0,0:0:0:0:
300,164,64983,6,0,B|268:165|241:181|224:204,1,86,8|0,0:0|0:0,0:0:0:0:
160,340,65316,1,4,3:0:0:0:
152,172,65483,1,0,0:0:0:0:
296,244,65649,1,8,0:0:0:0:
332,236,65733,1,0,0:0:0:0:
360,216,65816,1,0,0:0:0:0:
376,188,65899,1,0,0:0:0:0:
380,152,65983,38,0,B|373:122|353:100|328:88,1,86,4|0,3:0|0:0,0:0:0:0:
140,96,66316,2,0,B|170:100|199:90|220:72,1,86,4|0,3:0|0:0,0:0:0:0:
300,164,66649,1,8,0:0:0:0:
80,144,66816,1,0,0:0:0:0:
164,348,66983,6,0,B|184:325|190:295|184:268,1,86,4|0,3:0|0:0,0:0:0:0:
8,108,67316,2,0,B|-1:138|3:167|16:192,1,86,4|0,3:0|0:0,0:0:0:0:
108,292,67649,1,8,0:0:0:0:
216,184,67816,1,0,0:0:0:0:
80,144,67982,6,0,B|148:144|148:144|184:100|240:108,1,172,4|4,3:0|3:0,0:0:0:0:
276,248,68482,1,0,0:0:0:0:
376,144,68649,2,0,B|398:165|410:192|412:220,1,86,8|0,0:0|0:0,0:0:0:0:
216,184,68982,6,0,B|205:195|198:210|196:224,3,43,8|8|8|8,0:0|0:0|0:0|0:0,0:0:0:0:
240,108,69316,2,0,B|236:92|227:79|215:70,3,43,8|8|8|8,0:0|0:0|0:0|0:0,0:0:0:0:
296,164,69649,2,0,B|326:172|355:163|376:144,1,86,0|8,0:0|0:0,0:0:0:0:
368,16,69982,6,0,B|341:30|324:56|320:84,1,86,4|0,3:0|0:0,0:0:0:0:
412,220,70316,2,0,B|439:206|456:180|460:152,1,86,4|0,3:0|0:0,0:0:0:0:
384,308,70649,1,8,0:0:0:0:
212,308,70816,1,0,0:0:0:0:
40,292,70982,38,0,B|57:267|82:251|108:244,1,86,4|0,3:0|0:0,0:0:0:0:
296,308,71316,2,0,B|268:319|238:318|212:308,1,86,4|0,3:0|0:0,0:0:0:0:
216,184,71649,1,8,0:0:0:0:
216,184,71816,1,8,3:0:0:0:
236,68,71982,6,0,B|178:49|117:85|104:143,1,172,4|4,3:0|3:0,0:0:0:0:
328,140,72482,1,0,0:0:0:0:
140,212,72649,2,0,B|112:226|80:222|56:204,1,86,8|0,0:0|0:0,0:0:0:0:
292,208,72982,6,0,L|296:308,1,86,8|0,0:0|0:0,0:0:0:0:
404,172,73316,2,0,L|408:72,1,86,4|0,3:0|0:0,0:0:0:0:
384,252,73649,1,8,0:0:0:0:
420,248,73732,1,0,0:0:0:0:
452,232,73816,1,0,0:0:0:0:
472,204,73899,1,0,0:0:0:0:
480,168,73982,6,0,L|484:68,1,86,4|8,3:0|0:0,0:0:0:0:
332,56,74316,2,0,L|328:156,1,86,8|0,2:0|0:0,0:0:0:0:
216,184,74649,2,0,B|186:178|158:190|140:212,1,86,8|0,0:0|0:0,0:0:0:0:
224,344,74982,2,0,B|254:350|282:338|300:316,1,86,4|0,3:0|0:0,0:0:0:0:
140,212,75316,2,0,B|119:234|115:265|126:291,1,86,4|0,3:0|0:0,0:0:0:0:
280,236,75649,5,8,0:0:0:0:
64,176,75816,1,0,0:0:0:0:
232,40,75982,38,0,B|179:9|113:27|81:75,1,172,4|4,3:0|3:0,0:0:0:0:
204,264,76482,1,0,0:0:0:0:
168,104,76649,2,0,L|196:228,1,86,8|0,0:0|0:0,0:0:0:0:
224,344,76982,5,8,0:0:0:0:
260,344,77066,1,0,0:0:0:0:
292,332,77149,1,0,0:0:0:0:
320,308,77232,1,0,0:0:0:0:
336,276,77316,1,0,0:0:0:0:
352,244,77399,1,0,0:0:0:0:
380,220,77482,1,0,0:0:0:0:
412,208,77566,1,0,0:0:0:0:
448,208,77649,1,8,0:0:0:0:
448,208,77982,6,0,B|471:151|457:91|421:49,1,172,,,0:0:0:0:
252,76,78482,2,0,B|229:133|243:193|279:235,1,172,,,0:0:0:0:
252,76,78982,2,0,B|222:69|193:71|167:80,1,86,8|0,0:0|0:0,0:0:0:0:
280,236,79316,2,0,B|310:230|335:213|352:191,1,86,0|8,3:0|0:0,0:0:0:0:
336,60,79649,1,0,0:0:0:0:
244,160,79816,1,0,0:0:0:0:
36,252,79982,6,0,B|88:284|153:271|191:229,1,172,,,0:0:0:0:
252,76,80482,2,0,B|193:61|134:85|101:131,1,172,,,0:0:0:0:
192,228,80982,2,0,B|196:258|210:284|229:305,1,86,8|8,0:0|0:0,0:0:0:0:
36,252,81316,2,0,B|26:223|27:193|36:166,1,86,0|0,0:0|0:0,0:0:0:0:
192,152,81649,1,0,0:0:0:0:
240,32,81816,1,0,0:0:0:0:
368,40,81982,6,0,B|380:84|356:116|356:116|364:124|364:124|340:156|352:200,1,172,,,0:0:0:0:
412,336,82482,2,0,B|400:292|424:260|424:260|416:252|416:252|440:220|428:176,1,172,,,0:0:0:0:
288,64,82982,2,0,B|252:56|220:76|220:76|184:116|128:104,1,172,8|0,0:0|0:0,0:0:0:0:
268,140,83482,1,8,0:0:0:0:
156,32,83649,1,0,0:0:0:0:
120,184,83816,1,0,0:0:0:0:
196,336,83982,38,0,B|204:288|172:252|172:252|204:224|200:180,1,172,,,0:0:0:0:
44,36,84482,2,0,B|36:84|68:120|68:120|36:148|40:192,1,172,,,0:0:0:0:
116,316,84982,2,0,B|96:293|68:282|40:284,1,86,8|8,0:0|0:0,0:0:0:0:
200,180,85316,2,0,B|195:150|178:125|154:110,1,86,0|0,0:0|0:0,0:0:0:0:
344,136,85649,2,0,B|358:109|358:79|348:53,1,86,0|0,0:0|0:0,0:0:0:0:
420,176,85982,6,0,B|383:224|384:288|415:335,1,172,,,0:0:0:0:
248,264,86482,2,0,B|285:216|284:152|253:105,1,172,,,0:0:0:0:
124,56,86982,1,8,0:0:0:0:
124,56,87316,2,0,B|114:85|113:114|120:141,1,86,,,0:0:0:0:
248,264,87649,2,0,B|234:237|214:215|190:200,1,86,,,0:0:0:0:
184,360,87982,6,0,B|230:308|225:230|177:185,1,172,,,0:0:0:0:
128,276,88482,2,0,L|240:140,1,172,,,0:0:0:0:
340,196,88982,2,0,B|370:204|399:195|420:176,1,86,8|8,0:0|0:0,0:0:0:0:
260,68,89316,2,0,B|230:60|201:69|180:88,1,86,,,0:0:0:0:
356,96,89649,1,0,0:0:0:0:
356,96,89816,1,0,0:0:0:0:
268,220,89982,6,0,B|292:276|292:276|344:300|400:280,1,172,,,0:0:0:0:
488,156,90482,2,0,B|464:100|464:100|412:76|356:96,1,172,,,0:0:0:0:
468,232,90982,1,8,0:0:0:0:
468,232,91316,1,0,0:0:0:0:
340,196,91482,1,8,0:0:0:0:
252,96,91649,1,0,0:0:0:0:
48,244,91982,5,0,0:0:0:0:
48,244,92149,2,0,B|88:198|155:191|203:223,1,172,,,0:0:0:0:
400,280,92649,2,0,B|360:326|293:333|245:301,1,172,0|8,0:0|0:0,0:0:0:0:
264,168,93149,1,0,0:0:0:0:
400,280,93316,2,0,B|365:254|340:220,1,86,,,0:0:0:0:
272,80,93649,2,0,B|313:93|344:124,1,86,,,0:0:0:0:
192,116,93982,38,0,B|104:111|24:80,1,172,4|0,0:0|0:0,0:0:0:0:
76,264,94482,2,0,B|164:269|244:300,1,172,,,0:0:0:0:
76,264,94982,2,0,B|65:236|66:206|76:180,1,86,8|0,0:0|0:0,0:0:0:0:
244,300,95316,2,0,B|238:330|223:355|201:372,1,86,0|0,0:0|0:0,0:0:0:0:
236,196,95649,1,0,0:0:0:0:
284,104,95816,1,0,0:0:0:0:
456,120,95982,6,0,B|432:140|396:132|396:132|388:144|388:144|336:148|312:192,1,172,,,0:0:0:0:
244,300,96482,2,0,B|268:280|304:288|304:288|312:276|312:276|364:272|388:228,1,172,,,0:0:0:0:
232,212,96982,1,8,0:0:0:0:
232,212,97066,1,0,0:0:0:0:
232,212,97149,1,0,0:0:0:0:
16,280,97316,2,0,B|48:315|98:324|141:303|163:269,1,172,,,0:0:0:0:
300,44,97982,6,0,B|340:70|356:118|343:163|313:191,1,172,,,0:0:0:0:
88,228,98482,2,0,B|48:202|32:154|45:109|75:81,1,172,,,0:0:0:0:
264,120,98982,2,0,L|432:88,1,172,8|0,0:0|0:0,0:0:0:0:
464,248,99482,1,8,0:0:0:0:
312,192,99649,1,0,0:0:0:0:
432,88,99816,1,0,0:0:0:0:
380,240,99982,6,0,B|336:284|276:268|276:268|288:296|276:324,1,172,,,0:0:0:0:
100,328,100482,2,0,B|144:284|204:300|204:300|192:272|204:244,1,172,,,0:0:0:0:
312,192,100982,2,0,B|289:171|273:146|263:119,1,86,8|8,0:0|0:0,0:0:0:0:
204,244,101316,2,0,B|173:238|146:224|125:204,1,86,0|0,0:0|0:0,0:0:0:0:
132,52,101649,1,0,0:0:0:0:
132,52,101816,1,0,0:0:0:0:
48,176,101982,6,0,B|68:133|115:111|162:121|191:151,1,172,,,0:0:0:0:
284,276,102482,2,0,B|264:319|217:341|170:331|141:301,1,172,,,0:0:0:0:
272,184,102982,2,0,B|282:154|276:124|260:100,1,86,8|0,0:0|0:0,0:0:0:0:
284,276,103316,2,0,B|305:299|334:309|362:307,1,86,0|8,0:0|0:0,0:0:0:0:
204,244,103649,1,0,0:0:0:0:
352,220,103816,1,0,0:0:0:0:
204,244,103982,38,0,B|176:200|192:152|192:152|152:160|120:140,1,172,,,0:0:0:0:
308,24,104482,2,0,B|254:-5|187:22|168:80,1,172,,,0:0:0:0:
84,216,104982,2,0,B|106:195|118:168|120:140,1,86,,,0:0:0:0:
260,100,105316,2,0,B|267:130|284:154|307:169,1,86,0|0,0:0|0:0,0:0:0:0:
264,308,105649,2,0,B|235:299|205:302|180:314,1,86,0|0,0:0|0:0,0:0:0:0:
320,248,105982,6,0,B|376:273|438:256|475:213,1,172,,,0:0:0:0:
496,56,106482,2,0,B|440:31|378:48|341:91,1,172,,,0:0:0:0:
320,248,106982,2,0,B|312:277|290:299|264:308,1,86,8|0,0:0|0:0,0:0:0:0:
340,92,107316,2,0,B|355:119|354:149|342:174,1,86,0|8,0:0|0:0,0:0:0:0:
188,324,107649,1,0,0:0:0:0:
188,324,107982,6,0,B|145:307|135:260|135:260|87:265|58:229,2,172,0|0|8,0:0|0:0|0:0,0:0:0:0:
356,24,108982,5,8,0:0:0:0:
356,60,109066,1,0,0:0:0:0:
344,92,109149,1,0,0:0:0:0:
320,120,109232,1,0,0:0:0:0:
288,136,109316,1,0,0:0:0:0:
256,152,109399,1,0,0:0:0:0:
232,180,109482,1,0,0:0:0:0:
220,212,109566,1,0,0:0:0:0:
220,248,109649,5,8,0:0:0:0:
311,221,109816,1,8,0:0:0:0:
285,313,109983,1,4,2:0:0:0:
256,192,110065,12,0,113315,2:0:0:0:
152,232,123315,5,4,0:0:0:0:
256,116,123815,1,0,0:0:0:0:
360,232,124315,1,2,0:0:0:0:
256,236,124648,1,0,0:0:0:0:
200,148,124981,2,0,B|256:116|256:116|312:148,2,129,2|0|2,0:0|0:0|0:0,0:0:0:0:
200,268,129981,6,0,B|228:304|284:304|312:268,1,129,2|0,0:0|0:0,0:0:0:0:
256,120,130981,1,2,0:0:0:0:
256,224,131315,1,0,0:0:0:0:
168,172,131648,1,2,0:0:0:0:
256,44,132148,1,0,0:0:0:0:
344,172,132648,1,2,0:0:0:0:
36,148,139650,86,0,B|108:132|132:184|204:172,1,172,4|0,0:0|0:0,0:0:0:0:
236,92,140650,2,0,B|279:115|299:162|289:209|261:239,1,172,2|0,0:0|0:0,0:0:0:0:
176,252,141650,2,0,L|348:228,1,172,,,0:0:0:0:
432,212,142650,1,2,0:0:0:0:
108,328,143983,6,0,L|24:312,1,86,,,0:0:0:0:
80,248,144650,2,0,B|144:260|144:260|184:244|184:244|248:256,1,172,2|0,0:0|0:0,0:0:0:0:
308,316,145650,2,0,B|329:294|335:263|328:236,1,86,2|0,0:0|0:0,0:0:0:0:
272,176,146316,85,0,0:0:0:0:
272,176,146650,2,0,B|328:144|384:176|384:176|380:148|392:124,1,172,2|0,0:0|0:0,0:0:0:0:
472,160,147650,6,0,B|492:84|424:40|424:40|356:56|312:20,2,258,2|0|2,0:0|0:0|0:0,0:0:0:0:
392,124,149983,1,0,0:0:0:0:
472,160,150316,1,0,0:0:0:0:
468,244,150650,86,0,B|458:273|435:292|408:300,2,86,0|2|0,0:0|0:0|0:0,0:0:0:0:
388,216,151649,2,0,B|365:236|335:241|308:234,2,86,0|2|0,0:0|0:0|0:0,0:0:0:0:
332,152,152649,2,0,B|302:157|273:147|253:128,2,86,0|2|0,0:0|0:0|0:0,0:0:0:0:
316,68,153649,6,0,B|280:36|229:34|189:61|173:99,1,172,2|0,0:0|0:0,0:0:0:0:
172,99,154650,6,0,L|176:188,1,86,4|0,0:0|0:0,0:0:0:0:
180,272,155316,1,0,0:0:0:0:
252,224,155650,2,0,B|282:215|311:219|336:232,1,86,8|0,0:0|0:0,0:0:0:0:
408,280,156316,1,0,0:0:0:0:
408,280,156650,6,0,B|422:253|424:223|416:196,1,86,0|0,0:0|0:0,0:0:0:0:
380,116,157316,1,0,0:0:0:0:
428,44,157650,2,0,B|401:30|371:28|344:36,1,86,8|0,0:0|0:0,0:0:0:0:
260,60,158316,1,0,0:0:0:0:
160,216,158650,6,0,B|219:233|279:197|296:141,1,172,4|0,0:0|0:0,0:0:0:0:
260,60,159650,1,8,0:0:0:0:
296,140,159983,2,0,B|300:170|319:195|344:208,1,86,,,0:0:0:0:
384,52,160650,6,0,B|336:90|322:154|344:207,1,172,,,0:0:0:0:
384,284,161650,1,8,0:0:0:0:
428,212,161983,1,0,0:0:0:0:
344,208,162316,1,0,0:0:0:0:
472,288,162650,6,0,B|467:335|430:371|383:377|345:361,1,172,4|0,0:0|0:0,0:0:0:0:
268,320,163650,1,8,0:0:0:0:
192,276,163983,2,0,L|176:192,1,86,,,0:0:0:0:
100,80,164649,38,0,B|112:144|112:144|96:184|96:184|108:248,1,172,0|0,0:0|0:0,0:0:0:0:
120,332,165649,2,0,B|172:320|188:276|188:276|268:272,1,172,8|0,0:0|0:0,0:0:0:0:
352,264,166649,6,0,B|344:212|296:192|296:192|292:116,1,172,4|0,0:0|0:0,0:0:0:0:
288,32,167650,1,8,0:0:0:0:
216,76,167983,1,0,0:0:0:0:
216,160,168316,2,0,L|220:248,1,86,,,0:0:0:0:
224,332,168983,5,0,0:0:0:0:
148,288,169316,1,0,0:0:0:0:
72,244,169649,2,0,B|57:271|56:302|68:328,2,86,8|0|0,0:0|0:0|0:0,0:0:0:0:
148,200,170649,6,0,B|193:216|242:195|263:151|256:110,1,172,4|0,0:0|0:0,0:0:0:0:
280,24,171649,2,0,B|235:8|186:29|165:73|172:114,1,172,8|0,0:0|0:0,0:0:0:0:
172,116,172650,1,0,0:0:0:0:
80,192,175649,6,0,B|88:188|88:188|88:196|88:196|96:188|96:188|96:196|96:196|104:188|104:188|104:196|104:196|112:188|112:188|112:196|112:196|120:188|120:188|120:196|120:196|128:188|128:188|128:196|128:196|136:188|136:188|136:196|136:196|144:188|144:188|144:196|144:196|152:188|152:188|152:196|152:196|160:188|160:188|160:196|160:196|168:188|168:188|168:196|168:196|176:188|176:188|176:196|176:196|184:188|184:188|184:196|184:196|192:188|192:188|192:196|192:196|200:188|200:188|200:196|200:196|208:192|208:192|256:192,1,344,8|0,0:0|0:0,0:0:0:0:
256,192,176649,38,0,B|274:236|319:262|366:257|399:233,1,172,,,0:0:0:0:
364,88,177149,2,0,B|346:44|301:19|254:23|221:47,1,172,,,0:0:0:0:
364,88,177649,2,0,B|344:111|337:140|340:168,1,86,8|0,0:0|0:0,0:0:0:0:
452,292,177983,2,0,B|472:269|479:240|476:212,1,86,0|0,0:0|0:0,0:0:0:0:
444,68,178316,1,0,0:0:0:0:
340,168,178483,1,0,0:0:0:0:
196,128,178650,6,0,B|144:152|140:208|140:208|164:272,1,172,,,0:0:0:0:
64,172,179149,2,0,B|84:114|128:72|180:52,1,172,,,0:0:0:0:
380,32,179650,1,8,0:0:0:0:
360,60,179733,1,0,0:0:0:0:
328,76,179816,1,0,0:0:0:0:
292,80,179900,1,0,0:0:0:0:
260,72,179983,6,0,B|278:98|281:129|272:156,1,86,8|0,0:0|0:0,0:0:0:0:
164,272,180316,1,8,0:0:0:0:
24,312,180483,1,8,0:0:0:0:
164,272,180650,6,0,B|192:248|232:256|232:256|260:304|316:292,1,172,,,0:0:0:0:
448,244,181150,2,0,B|420:268|380:260|380:260|352:212|296:224,1,172,,,0:0:0:0:
148,196,181650,2,0,B|188:176|236:180|236:180|264:148|308:152,1,172,8|0,0:0|0:0,0:0:0:0:
448,244,182150,1,0,0:0:0:0:
308,152,182316,1,0,0:0:0:0:
448,244,182483,1,0,0:0:0:0:
396,112,182650,6,0,B|374:70|327:48|280:57|249:83,1,172,,,0:0:0:0:
148,196,183150,2,0,B|170:238|217:260|264:251|295:225,1,172,,,0:0:0:0:
164,112,183650,2,0,B|134:108|105:118|84:136,1,86,8|0,0:0|0:0,0:0:0:0:
212,244,183983,2,0,B|187:262|173:289|172:317,1,86,0|0,0:0|0:0,0:0:0:0:
344,296,184316,2,0,B|340:326|350:355|368:376,1,86,0|0,0:0|0:0,0:0:0:0:
296,224,184650,38,0,B|328:172|327:110|300:61,1,172,,,0:0:0:0:
164,112,185150,2,0,B|115:149|95:208|104:263,1,172,,,0:0:0:0:
296,224,185650,2,0,B|272:205|258:179|252:151,1,86,8|0,0:0|0:0,0:0:0:0:
424,144,185983,2,0,B|441:169|448:197|447:225,1,86,0|0,0:0|0:0,0:0:0:0:
372,352,186316,1,8,0:0:0:0:
372,204,186483,1,0,0:0:0:0:
300,308,186650,6,0,B|254:308|229:276|229:276|219:282|219:282|196:252|148:252,1,172,,,0:0:0:0:
4,276,187150,2,0,B|49:275|74:307|74:307|84:301|84:301|108:332|156:332,1,172,,,0:0:0:0:
140,172,187650,2,0,B|184:171|224:188,1,86,8|0,0:0|0:0,0:0:0:0:
448,224,187983,2,0,B|405:213|371:186,1,86,0|0,0:0|0:0,0:0:0:0:
300,60,188316,1,0,0:0:0:0:
224,188,188483,1,0,0:0:0:0:
192,80,188650,6,0,B|148:68|108:84|108:84|68:100|24:88,1,172,,,0:0:0:0:
152,156,189150,1,8,0:0:0:0:
276,224,189316,2,0,B|232:212|192:228|192:228|152:244|108:232,1,172,,,0:0:0:0:
236,300,189816,1,0,0:0:0:0:
68,296,189983,6,0,B|108:314|152:312,1,86,8|0,0:0|0:0,0:0:0:0:
316,160,190316,2,0,B|276:142|232:144,1,86,8|0,0:0|0:0,0:0:0:0:
356,228,190650,6,0,B|399:205|414:151|389:106|350:89,1,172,0|0,0:0|0:0,0:0:0:0:
468,152,191150,1,8,0:0:0:0:
484,292,191316,1,8,0:0:0:0:
356,228,191483,1,0,0:0:0:0:
252,112,191650,2,0,B|240:84|248:52|268:32,1,86,8|0,0:0|0:0,0:0:0:0:
256,208,191983,37,0,0:0:0:0:
256,208,192150,1,0,0:0:0:0:
400,296,192316,1,0,0:0:0:0:
400,296,192483,1,0,0:0:0:0:
232,284,192650,6,0,B|192:268|172:228|180:184|180:184|156:192|132:188,1,172,4|0,0:0|0:0,0:0:0:0:
40,68,193150,2,0,B|79:51|122:65|147:101|147:101|158:79|178:65,1,172,0|0,0:0|0:0,0:0:0:0:
64,220,193650,2,0,B|52:189|60:155|80:132,1,86,8|0,0:0|0:0,0:0:0:0:
260,52,193983,2,0,B|263:85|247:115|221:132,1,86,0|0,0:0|0:0,0:0:0:0:
132,188,194316,1,8,0:0:0:0:
88,292,194483,1,0,0:0:0:0:
256,208,194650,38,0,B|320:196|320:196|360:212|360:212|424:200,1,172,0|0,0:0|0:0,0:0:0:0:
324,276,195150,2,0,B|260:288|260:288|220:272|220:272|156:284,1,172,0|0,0:0|0:0,0:0:0:0:
280,364,195650,2,0,L|380:344,1,86,8|0,0:0|0:0,0:0:0:0:
456,112,195983,2,0,L|356:132,1,86,8|0,0:0|0:0,0:0:0:0:
200,160,196316,1,8,0:0:0:0:
372,128,196483,1,8,0:0:0:0:
188,88,196650,38,0,B|148:92|124:128|124:168|124:168|96:176|80:204,1,172,,,0:0:0:0:
36,356,197150,2,0,B|76:352|100:316|100:276|100:276|128:268|144:240,1,172,,,0:0:0:0:
200,160,197650,2,0,B|247:152|278:104|265:54|230:29,2,172,8|0|0,0:0|0:0|0:0,0:0:0:0:
356,120,198650,6,0,L|188:88,1,172,,,0:0:0:0:
240,244,199150,2,0,L|408:276,1,172,,,0:0:0:0:
240,244,199650,2,0,B|233:274|235:303|244:329,1,86,8|0,0:0|0:0,0:0:0:0:
408,276,199983,2,0,B|415:246|413:217|404:191,1,86,,,0:0:0:0:
256,172,200316,1,0,0:0:0:0:
404,192,200483,1,0,0:0:0:0:
184,192,200650,6,0,B|159:248|158:308|176:361,1,172,,,0:0:0:0:
316,284,201150,2,0,B|338:226|333:165|309:115,1,172,0|0,0:0|0:0,0:0:0:0:
156,116,201650,2,0,B|150:146|162:174|184:192,1,86,8|0,0:0|0:0,0:0:0:0:
380,92,201983,2,0,B|371:63|345:44|317:40,1,86,,,0:0:0:0:
232,132,202316,1,0,0:0:0:0:
232,132,202483,1,0,0:0:0:0:
284,288,202650,6,0,B|292:240|264:204|264:204|224:216|184:192,1,172,,,0:0:0:0:
24,156,203150,2,0,B|60:188|106:180|106:180|116:140|157:117,1,172,,,0:0:0:0:
124,260,203650,2,0,B|94:267|65:265|39:256,1,86,8|0,0:0|0:0,0:0:0:0:
284,288,203983,2,0,B|314:281|343:283|369:292,1,86,8|0,0:0|0:0,0:0:0:0:
200,308,204316,1,0,0:0:0:0:
200,308,204483,1,0,0:0:0:0:
268,164,204650,6,0,B|328:151|387:160|437:185,1,172,,,0:0:0:0:
492,296,205150,1,8,0:0:0:0:
436,184,205316,2,0,B|423:124|432:65|457:15,1,172,,,0:0:0:0:
332,56,205816,1,0,0:0:0:0:
268,164,205983,38,0,B|240:152|221:128|216:100,1,86,8|0,0:0|0:0,0:0:0:0:
36,104,206316,2,0,B|66:100|91:81|104:56,1,86,8|0,0:0|0:0,0:0:0:0:
64,216,206650,6,0,B|106:171|118:111|104:57,1,172,,,0:0:0:0:
188,240,207150,1,8,0:0:0:0:
104,336,207316,1,8,0:0:0:0:
64,216,207483,1,0,0:0:0:0:
184,320,207650,6,0,B|215:320|241:304|256:280,1,86,0|0,0:0|0:0,0:0:0:0:
392,181,207983,1,8,0:0:0:0:
340,340,208150,1,0,0:0:0:0:
288,181,208316,1,8,0:0:0:0:
423,280,208483,1,8,0:0:0:0:
448,96,208650,5,0,0:0:0:0:
416,84,208733,1,0,0:0:0:0:
380,84,208816,1,0,0:0:0:0:
348,92,208900,1,0,0:0:0:0:
320,112,208983,6,0,B|307:121|299:134|296:148,3,43,8|0|0|0,0:0|0:0|0:0|0:0,0:0:0:0:
288,180,209316,2,0,B|291:195|287:210|279:222,3,43,8|0|0|0,0:0|0:0|0:0|0:0,0:0:0:0:
264,252,209650,2,0,B|216:289|149:282|109:241,1,172,8|8,0:0|0:0,0:0:0:0:
56,44,210316,37,8,0:0:0:0:
84,64,210400,1,0,0:0:0:0:
104,92,210483,1,0,0:0:0:0:
116,124,210566,1,0,0:0:0:0:
120,160,210650,1,0,0:0:0:0:
40,284,210816,1,8,0:0:0:0:
188,196,210983,5,8,0:0:0:0:
44,200,211150,1,8,0:0:0:0:
188,196,211316,1,8,0:0:0:0:
116,328,211483,1,8,0:0:0:0:
242,281,211650,5,8,0:0:0:0:
268,256,211733,1,0,0:0:0:0:
282,224,211816,1,0,0:0:0:0:
284,188,211900,1,0,0:0:0:0:
273,154,211983,1,8,0:0:0:0:
262,120,212066,1,0,0:0:0:0:
265,83,212150,1,0,0:0:0:0:
279,52,212233,1,0,0:0:0:0:
304,24,212316,6,0,B|361:3|422:25|455:71,1,172,8|8,0:0|0:0,0:0:0:0:
476,104,212733,1,0,0:0:0:0:
480,136,212816,1,0,0:0:0:0:
472,168,212900,1,0,0:0:0:0:
452,196,212983,2,0,L|416:220,3,43,,,0:0:0:0:
388,236,213316,6,0,B|399:264|398:294|388:320,1,86,8|8,0:0|0:0,0:0:0:0:
116,284,213650,1,0,0:0:0:0:
144,264,213733,1,0,0:0:0:0:
176,252,213816,1,0,0:0:0:0:
212,248,213900,1,0,0:0:0:0:
244,252,213983,2,0,B|267:255|288:264,3,43,,,0:0:0:0:
316,276,214316,38,0,B|305:248|306:218|316:192,1,86,8|8,0:0|0:0,0:0:0:0:
296,52,214650,1,8,0:0:0:0:
260,48,214733,1,0,0:0:0:0:
228,60,214816,1,0,0:0:0:0:
208,88,214900,1,0,0:0:0:0:
200,124,214983,6,0,B|197:140|188:152|176:160,3,43,,,0:0:0:0:
148,176,215316,1,8,0:0:0:0:
120,196,215400,1,0,0:0:0:0:
108,228,215483,1,0,0:0:0:0:
112,264,215566,1,0,0:0:0:0:
128,292,215650,5,8,0:0:0:0:
160,280,215733,1,0,0:0:0:0:
192,276,215816,1,8,0:0:0:0:
224,280,215900,1,0,0:0:0:0:
256,288,215983,1,8,0:0:0:0:
288,304,216066,1,0,0:0:0:0:
312,328,216150,1,8,0:0:0:0:
332,356,216233,1,0,0:0:0:0:
364,340,216316,5,8,0:0:0:0:
388,316,216400,1,0,0:0:0:0:
404,284,216483,1,8,0:0:0:0:
412,252,216566,1,0,0:0:0:0:
412,216,216650,1,4,0:0:0:0:
256,192,216733,12,0,224983,2:0:0:0:
